#TITLE:Understyle;
#SUBTITLE:~D-turbo original~;
#ARTIST:Dj Sharpnel & V.a;
#TITLETRANSLIT:;
#SUBTITLETRANSLIT:;
#ARTISTTRANSLIT:;
#CREDIT:;
#BANNER:UnderstyleBN.jpg;
#BACKGROUND:UnderstyleBG.png;
#LYRICSPATH:;
#CDTITLE:dtittle.png;
#MUSIC:DJ Sharpnel & V.A - Sharpnelsound Collection - 12 - Understyle.mp3;
#OFFSET:0.500;
#SAMPLESTART:172.900;
#SAMPLELENGTH:25.940;
#SELECTABLE:YES;
#BPMS:0.000=199.980;
#STOPS:;
#BGCHANGES:0.000=UnderstyleBG.jpg=1.000=0=0=1,
692.500=UnderstyleBG.jpg=1.000=1=0=1,
692.500=UnderstyleBG.png=1.000=0=0=1,
99999=-nosongbg-=1.000=0=0=0 // don't automatically add -songbackground-
;
// cache tags:
#FIRSTBEAT:31.000;
#LASTBEAT:692.500;
#SONGFILENAME:Songs/Chilean Keyboard Megapack 3/(D-turbo) Understyle/understyle.sm;
#HASMUSIC:1;
#HASBANNER:1;
#MUSICLENGTH:209.178;
// end cache tags

//---------------dance-single - xD!----------------
#NOTES:
     dance-single:
     xD!:
     Challenge:
     12:
     1.000,1.000,1.000,0.067,0.318,1352.000,472.000,14.000,0.000,0.000:
0000
0000
0000
0000
,
0000
0000
0000
0000
,
0000
0000
0000
0000
,
0000
0000
0000
0000
,
0000
0000
0000
0000
,
0000
0000
0000
0000
,
0000
0000
0000
0000
,
0000
0000
0000
0000
0000
0000
0110
1001
,
0100
0000
0010
0100
1000
0100
0001
0000
0100
0000
0010
0100
0001
0010
0100
0000
,
1000
0000
0010
1000
0100
0010
0001
0000
0100
0000
0010
0100
1000
0100
0010
0000
,
0001
0000
1000
0010
0100
1000
0010
0000
0100
0000
0001
0100
0010
0001
1000
0000
,
0100
0000
0001
1000
0010
0001
0100
0000
1000
0000
0100
0010
0100
1000
0010
0000
,
0001
0000
0010
0100
1000
0100
0010
0000
0100
0000
1000
0010
0100
1000
0001
0000
,
0010
0000
1000
0100
0010
0001
0010
0000
0100
0000
0010
0001
0010
0100
1000
0000
,
0100
0000
0010
0100
1000
0001
0010
0000
0100
0000
0001
0010
0100
1000
0100
0000
,
1001
0000
0100
0010
0001
0010
0100
1000
0110
0000
0000
1000
0100
0001
0100
0010
,
0001
0010
1000
0100
0001
0010
0100
1000
0010
0100
0010
0000
1000
0100
1000
0000
,
0100
0000
0100
0000
0010
0001
0010
0000
0100
0000
0100
0000
1000
0100
1000
0000
,
0010
0000
0010
0000
0100
0010
0100
0000
0010
0000
0010
0000
0001
0000
0001
0000
,
0100
0000
0000
0100
0000
0000
1000
0000
0000
0001
0010
0100
1000
0100
0010
0001
0010
0000
1001
0000
0000
0100
0000
0000
,
0011
0100
1010
0001
1100
0010
0101
0010
,
1001
0100
1010
0001
0110
0010
0101
1000
,
1010
0100
0011
0010
0101
1000
1010
0100
,
0011
0000
1000
0000
0101
0000
0010
0000
1001
0000
0100
0000
1000
0100
1010
0101
,
1010
0000
0000
0101
0000
0000
1010
0000
0000
0101
0000
0000
1010
0000
0000
0101
0000
0000
0010
0000
0000
0000
0000
0000
0010
0000
0000
0000
0000
0000
0010
0000
0000
0000
1000
0000
0100
0000
1010
0000
0101
0000
1010
0000
0101
0000
1010
0000
,
0101
1010
0101
1010
0101
1010
0101
1010
0101
0010
0001
0000
2000
0000
3000
0000
0000
0000
1001
0000
0000
0000
0000
0000
,
0100
0000
0010
0000
0000
0000
0010
0000
0100
0000
0000
0000
1001
0100
0010
0100
,
0010
0010
1001
0000
0100
0001
0010
1000
,
0100
0000
0000
0001
0000
0000
0010
0000
0000
1001
0000
0000
0000
0000
0000
0000
0000
0000
1000
0100
0010
0001
0010
0100
,
1000
0100
0010
0001
0010
0100
1000
0000
0000
0000
0000
0000
1001
0000
0000
0100
0000
0000
0010
0000
0000
1000
0000
0000
,
0100
0000
0001
0000
0100
0000
0010
0000
1000
0000
0100
0000
0001
0000
1000
0100
,
1000
0010
0010
0000
1001
0100
0010
1000
,
0001
0000
0100
0000
0010
0000
1000
0000
0001
0000
0010
0000
0100
0010
1000
0100
,
0010
0001
0100
0010
1001
0000
0100
0000
1010
0000
0001
0000
0110
0000
0010
0000
,
1001
0000
0010
0000
0101
0000
0010
0000
0110
0000
1000
0000
0100
0000
0010
0001
,
0010
0100
0100
1001
0100
1000
0010
0100
,
1000
0000
0001
0000
0100
0000
0010
0000
0001
0000
0010
0100
1000
0100
1000
0100
,
0010
0001
1000
0000
0010
0000
0100
0000
0001
0000
0010
0000
0100
0000
1000
0000
,
0010
0000
0100
0000
0001
0000
1000
0000
0100
0000
0010
0000
0001
0000
1000
0100
,
1000
0100
0100
0010
0001
0100
0010
1000
,
0010
0000
0001
0000
0010
0000
0100
0000
1000
0000
0100
0001
0010
0100
1000
0100
,
0010
0001
0010
0100
1001
0000
0000
0000
0000
0000
0000
0000
1001
0000
0000
0000
,
0000
1001
0000
2002
,
3003
0000
0000
0000
,
0000
0000
1001
0000
1001
0000
0110
0110
,
0110
0000
0110
0000
0000
0000
1000
0000
1000
0000
1000
0000
0100
0010
0100
0010
,
0100
0010
0100
0000
0010
0000
0100
0000
1000
0100
0010
0100
1000
0010
0100
0001
,
0100
0010
1000
0100
0001
0010
0100
1000
0010
0100
0001
0100
0010
1000
0000
0000
,
0101
0010
0010
1100
0010
0001
0100
0010
,
1100
0011
1100
0010
1000
0010
0100
0001
,
1100
0100
1010
0100
0010
0001
0100
0010
,
1000
0011
0100
0110
1000
0100
0001
1000
,
0011
0000
0000
0000
0000
0000
0100
0000
0000
0000
0000
0000
0110
0000
0000
0000
0000
0000
1000
0000
0000
0000
0000
0000
0001
0000
0000
0000
0000
0000
0100
0000
0000
0000
0000
0000
0010
0000
0000
0000
0000
0000
2000
0000
0000
0000
0000
3000
,
0200
0000
0000
0000
0000
0000
0302
0000
0000
0000
0000
0003
0200
0000
0000
0000
0000
0300
0020
0000
0000
0000
0000
0030
2000
0000
0000
0000
0000
3000
0020
0000
0000
0000
0030
0000
0100
0000
0000
0000
0000
0000
0001
0000
0000
0000
0000
0000
,
1010
0110
1001
0010
0110
0001
1010
1100
,
1010
0001
1100
0011
1001
0010
0101
1000
,
0110
0110
1001
0100
0011
0100
0110
1000
,
1010
0100
0011
0100
1010
0010
0101
0100
,
1010
1000
0110
0100
1001
0100
0110
1000
,
0011
0100
1001
0010
1100
0001
0110
1000
,
1010
0100
1001
0100
0110
1000
1100
0010
,
0011
0100
1100
1000
0101
0010
1010
0001
,
1100
0010
1001
0100
0011
0001
1100
0010
,
1100
0010
0101
1000
0110
0100
1001
0100
,
0110
1000
0011
0100
1001
0010
0110
1000
,
1010
0100
0101
0010
0101
1000
1100
0010
,
0110
1000
1010
0100
0011
0100
0010
0100
,
1000
0100
0001
0010
1000
0001
0100
0010
,
1000
0010
0100
0001
0100
1000
0010
0100
,
0001
0100
0010
1000
0010
0100
0001
0010
,
0000
0000
0000
0000
,
0000
0000
0000
0000
,
0000
0101
0110
1001
,
1100
0000
0000
0011
0000
0000
0000
0000
0000
0000
0000
0000
1001
0000
0010
0000
,
1100
0001
0011
0100
1001
0010
0110
1000
,
0101
0010
1001
0100
0110
1000
0101
0010
,
0110
1000
1010
0100
0011
0010
1001
0100
,
0110
0100
1010
0110
1001
0011
0110
0100
,
1001
1000
0110
0100
1001
0100
0110
1000
,
0101
0010
1001
0100
0110
1000
0011
0100
,
1010
0001
1001
1000
0110
0100
1010
1010
,
1010
0000
0000
0100
0010
0001
0100
0010
1000
0000
0000
0000
0000
0000
0000
1001
0000
0000
0100
0000
0000
0010
0000
0000
,
1000
0100
0110
1100
0001
0100
0010
1100
,
0100
0110
1001
0100
0010
1000
0010
0100
,
0001
0010
1100
1100
0011
0100
0010
1000
,
0101
0110
0110
1000
0010
0100
0001
0010
,
0100
0001
1100
1100
0011
0100
1001
0010
,
1100
0001
0110
0100
1001
0100
0110
0100
,
1001
0100
0101
1010
0110
1000
1001
1000
,
0110
0000
1100
0000
0110
0000
0010
0000
0100
0000
0010
0000
1000
0100
0010
0001
,
0010
0000
0000
0100
0000
0000
1000
0000
0000
0100
0000
0000
0010
0000
0000
0001
0000
0000
0010
0000
0000
0100
0000
0000
1000
0000
0000
0000
0000
0000
1000
0000
0000
0000
0000
0000
0001
0000
1000
0000
0010
0000
0100
0000
0001
0000
1000
0000
,
0010
0100
0001
1000
0010
0100
0001
1000
0010
0100
0001
1000
0100
0000
0000
0000
0000
0000
1001
0000
0000
0000
0000
0000
,
0110
0000
1000
1000
0110
0000
1100
0000
,
0010
0000
0001
0001
0110
0000
1001
0000
,
0110
0000
0100
0100
1001
0000
1001
0000
,
0011
0000
0010
0010
0110
0110
1001
0000
,
0110
0000
1000
0100
0110
0000
1000
0100
,
0011
0000
0001
0010
1100
0000
0010
0100
,
1001
0000
0010
0100
0110
0000
1000
0001
,
1001
0000
0001
1000
1001
0000
1000
0100
,
0010
0001
0010
0100
1001
0000
0100
1000
,
0100
0010
0100
0010
1001
0000
0100
1000
,
0010
0100
0001
0100
1100
0000
0010
0100
,
1010
0001
0100
0010
1100
0001
0100
0010
,
0101
1000
0010
0100
0101
0010
0100
1000
,
1010
0100
0001
0010
0110
1000
0010
0100
,
0101
0010
1000
0010
1100
0001
0100
0010
,
1001
0100
1000
0010
1100
0001
0100
0010
,
1001
0010
0100
0001
0110
1000
0010
0100
,
1001
0010
0001
1000
0110
0100
0001
0010
,
0101
1000
0001
0100
1010
1000
0001
0010
,
0110
1000
0010
0100
0011
0100
0001
0010
,
1100
0010
0100
0001
0110
0010
1000
0100
,
0011
0001
0010
0100
1001
0100
0010
0001
,
1100
0010
1000
0100
0011
0100
0010
0100
,
1100
0010
0001
1000
1010
0100
0001
0100
,
1010
0001
0100
0010
1001
0010
0100
1000
,
0100
0001
0100
0010
0100
0001
0010
1000
,
0010
0100
0001
0010
0100
1000
0010
0100
,
0001
0010
0100
1000
0100
1010
0000
0000
,
1001
0000
0110
1001
0000
1001
0100
0010
,
1000
0100
0101
0010
0100
1001
0011
0100
,
0010
0101
1010
0100
0001
1100
0010
1100
,
0010
0110
0011
0100
1001
0110
0110
1000
,
0101
0100
0010
1000
0010
0100
0001
0010
,
0100
1000
0001
0100
0010
0100
2002
0000
,
0000
0000
0000
0000
0000
3003
1001
0000
,
0110
0110
0110
0000
1001
0000
0110
0110
,
1001
0110
0101
1010
1001
1100
0011
0110
,
0001
0110
1100
0100
1010
0010
0100
0001
,
0010
0100
1010
0100
1010
0000
1010
0100
,
0011
0010
0110
1000
0110
0010
1001
0100
,
0010
0100
1010
0101
0010
0100
1001
0010
,
1100
0101
0100
0010
1001
0010
0101
0100
,
0011
1100
0100
1010
0110
0100
0110
1001
,
0110
0110
1010
0100
0011
0100
1010
0100
,
1010
0100
1100
0001
0110
0010
1001
0010
,
0110
0001
1100
0010
1001
0100
0110
1000
,
1010
0110
0001
1100
0110
1010
0100
0011
,
1100
0110
1000
0001
1010
0100
0101
1000
,
0010
0000
0000
0100
0000
0000
0001
0000
0000
0000
0010
0001
0010
0100
1000
0100
0010
0000
1001
0000
0000
0100
0000
0000
,
1010
0100
1001
0010
0101
0100
0011
1000
,
0110
0100
1001
0010
1100
0010
0110
0001
,
1100
0010
0101
0001
1100
1000
0011
0100
,
1001
0010
1100
0010
0110
0001
1100
0010
,
1001
0100
0011
1000
0101
0100
1010
1000
,
0101
0100
0110
1000
0011
0100
1010
1000
,
0101
1000
0110
0100
1001
0010
1100
0001
,
0110
0010
1001
0110
0010
1100
0011
0100
,
1010
1000
0110
0100
1001
0010
0110
1000
,
1100
0010
1001
0001
0110
0010
1001
0010
,
0110
0001
1100
0010
1001
0110
0011
0100
,
1010
1001
0110
0101
1100
0010
1001
0110
,
0101
1000
1010
0100
0011
0100
1010
0100
,
0011
1000
0110
0100
1001
0100
1010
0001
,
0101
0010
1001
0100
0011
0100
0110
1000
,
0110
0001
1100
1000
0011
0100
1001
0100
,
0011
1000
0011
0100
0110
1000
0101
0010
,
1100
0010
1001
0100
0011
0100
0110
1000
,
1001
0100
0011
1100
0010
0110
1001
1001
,
0110
0011
0101
1001
0110
1000
0011
1100
,
1010
0100
0011
1000
0101
0011
0110
0001
,
1010
0010
1100
0001
0011
1000
1100
0001
,
0011
0010
0101
1000
0110
0100
1001
0100
,
0110
1000
0011
0010
1100
0010
0101
0001
,
1100
0010
0110
1000
0011
0100
0011
1000
,
0110
0100
1001
0010
1100
0001
1010
0010
,
0101
0001
1100
0010
0101
0001
1010
0010
,
0101
0001
1010
1000
0101
0100
0011
1000
,
0110
0001
1100
0010
1100
0001
1010
0100
,
0101
0010
1010
0001
1100
0010
1001
0010
,
1001
0100
0110
1001
0110
0011
1100
0010
,
1100
0001
0110
0011
1100
0010
2002
0000
,
0000
3003
0000
0000
0000
0000
0000
0000
;
